#TITLE:Wo Jiu Shi Zhe Yang;
#SUBTITLE:;
#ARTIST:Jade Liu & Tank;
#TITLETRANSLIT:Wo Jiu Shi Zhe Yang;
#SUBTITLETRANSLIT:;
#ARTISTTRANSLIT:Luu Luc Duong & Tank;
#CREDIT:;
#BANNER:Wo Jiu Shi Zhe Yang-bn.png;
#BACKGROUND:Wo Jiu Shi Zhe Yang-bg.png;
#LYRICSPATH:;
#CDTITLE:pm4cd.png;
#MUSIC:Wo Jiu Shi Zhe Yang.mp3;
#OFFSET:0.100;
#SAMPLESTART:66.211;
#SAMPLELENGTH:20.000;
#SELECTABLE:YES;
#BPMS:0.000=95.010;
#STOPS:;
#BGCHANGES:;
// cache tags:
#FIRSTBEAT:9.000;
#LASTBEAT:351.875;
#SONGFILENAME:Songs/Music V.I.P ^_^/Wo Jiu Shi Zhe Yang/Wo Jiu Shi Zhe Yang.sm;
#HASMUSIC:1;
#HASBANNER:1;
#MUSICLENGTH:227.056;
// end cache tags

//---------------dance-single - ----------------
#NOTES:
     dance-single:
     :
     Hard:
     12:
     0.921,1.000,1.000,0.225,0.535,829.000,490.000,51.000,0.000,221.000:
0000
0000
0000
0000
,
0000
0000
0000
0000
,
0000
0002
0000
0000
,
0000
0000
0000
0000
0000
0000
0010
0100
1023
0000
0000
0000
0000
0000
0000
0000
0000
0000
0000
0000
0000
0000
0000
0000
1000
0000
0000
0000
0000
0000
0000
0000
,
0100
1230
0000
0000
,
0001
2301
0000
0010
,
0100
3102
0000
0000
,
0010
0000
0000
0000
0000
0000
1000
0100
2013
0000
0000
0000
0000
0000
0000
0000
0000
0000
0000
0000
0000
0000
0000
0000
0010
0000
0000
0000
0000
0000
0000
0000
,
0100
0010
3201
0000
0000
0000
0000
0000
,
0000
0300
1111
0000
1111
0000
1111
0000
,
0000
0000
0000
0000
1021
0100
1000
0100
1001
0000
0000
0100
0000
1000
0100
0001
,
1100
0000
0000
0030
2100
0010
0100
0010
0101
0000
0010
0001
0000
0010
0000
0100
,
0011
0000
0001
3000
0201
0010
1000
0010
1001
0000
0000
0001
0000
0001
0010
1000
,
0011
0000
0001
0000
1011
0010
0001
1000
0011
0000
1000
0010
0000
0001
0000
0010
,
1001
0010
1001
0310
1100
0000
0010
0000
0101
0000
0110
0000
0001
0000
1100
0000
,
1010
0100
0110
0010
0101
0011
1000
1001
,
0110
0001
2010
0000
0101
0110
0001
0110
,
0011
0000
0100
3000
0021
0000
0001
0000
1100
0000
0101
0000
1000
0000
0101
0000
,
1001
0100
1131
0010
1100
1001
0010
0101
,
0011
1000
0110
1000
0110
1100
0001
1100
,
0011
0010
1100
0010
0011
1010
1000
0110
,
0011
0001
1010
0100
1001
0011
0100
0010
,
1001
0010
1112
0010
1100
0110
1000
1100
,
1010
0010
0123
0001
1100
1001
0100
1001
,
0101
0001
1230
0001
1010
0011
1000
0011
,
1001
0010
1301
1001
0110
0110
1010
1010
,
0101
0101
0101
0101
1111
0000
0101
0000
1010
0000
0110
0000
0011
0000
1001
0000
,
1010
0101
0011
0110
1100
0110
0011
0000
,
0101
0011
0120
0101
1001
1100
2031
0000
,
0011
0110
3102
1010
1100
0110
1013
1100
,
0101
0000
1100
1100
1101
0000
0101
0000
0110
0000
1001
0000
0110
0000
0101
0000
,
0011
1100
0101
0011
1010
1100
1001
0000
,
0011
0000
0101
0000
1100
0101
0011
1001
1010
0000
0000
1010
0101
0011
0110
1100
,
0011
1001
1101
1110
1011
1000
1100
0010
,
0011
0011
0011
0000
0222
0000
0000
0000
0000
0000
0000
0000
0000
0000
0000
0000
,
0000
0000
0000
0333
1111
0000
0001
0010
1100
0010
0100
0001
1000
0100
1000
0010
,
1100
0010
1000
0000
0101
0100
1000
0100
0011
0010
1000
0010
0100
0010
1000
0001
,
1010
0010
0100
1000
0111
1000
0001
0010
1100
1000
0010
0100
0001
0010
0100
0010
,
0101
1000
0100
0010
0100
1000
0100
0010
1001
0010
0100
0001
0010
1000
0100
0001
,
0101
0100
0011
0011
1111
1000
1001
0100
0011
0100
0010
0100
1001
0010
0101
0001
,
1100
0000
0010
0000
0101
0100
0011
1000
1001
0010
0100
0001
0010
0100
0010
1000
,
0011
1000
0100
1000
1101
0010
0010
0100
1100
0000
0010
0100
1001
0100
0010
1000
,
0101
1000
0010
0001
1011
0100
0100
1000
1001
0010
1100
0101
1010
0110
1001
1010
,
0101
1100
0011
0110
1020
0000
0000
0000
1000
0000
0000
0000
0001
0000
0000
0000
,
0101
0000
1131
1000
0011
1100
0001
1010
,
1100
0010
0012
0000
1010
0110
1000
0110
,
1100
0000
0010
0003
1200
0000
0010
0000
1001
0000
1010
0000
0010
0000
1010
0000
,
0011
0010
1311
0100
0101
1010
0100
0011
,
1100
0100
1010
1000
0011
0110
0001
1010
,
1001
0001
2010
0000
0101
0110
0001
0110
,
0011
0000
0001
3000
0120
0000
0001
0000
1100
0000
0101
0000
1000
0000
0100
0000
,
0101
0000
1000
0130
2011
0000
0001
0000
0011
0000
0101
0000
0010
0000
0101
0000
,
0011
0100
3021
0100
1001
1100
1000
1100
,
0101
0100
1132
0010
1100
0110
1000
0110
,
1010
0100
1013
1010
0101
0101
0110
0110
,
1001
1001
1001
1001
1111
0000
1010
0000
0110
0000
0011
0000
1110
0000
1001
0000
,
0110
1100
1011
0110
1001
0101
1110
1001
,
0110
1100
2011
0101
0011
0110
3121
1100
,
0101
1001
1231
1010
1001
0011
1312
1010
,
1100
0110
1113
1001
1110
0101
0111
1010
,
1101
0011
1011
0110
1110
0101
1110
1100
,
1011
0000
1001
0000
1001
1010
1100
0101
1010
0000
0000
1001
0101
0011
0101
0110
,
1100
0000
1100
0100
1110
1001
0011
0110
1100
0000
0011
0000
1010
0000
1100
0000
,
0110
0101
0012
0000
1010
0000
1203
0000
,
1001
2310
0110
3021
,
1001
1230
0011
1302
,
1010
0213
0011
2310
,
0110
3102
0110
1203
,
1010
1320
1001
2130
,
0101
0000
0000
0000
3021
0100
1000
0001
1100
0000
0000
0100
1032
0010
0100
0010
,
1100
0000
0000
0000
1113
0010
0101
0100
1100
0000
0011
0011
0110
0110
1100
1100
,
0101
0101
1010
1010
1111
1000
0100
0001
1010
0100
0010
0001
0110
1000
0001
0010
,
1100
0100
1000
0001
0110
0100
0010
0100
0101
1000
0010
0001
1010
1000
0010
0001
,
0011
0100
0010
0001
1101
0010
0001
1000
0110
1000
0010
0100
1100
0001
0010
0100
,
1001
0010
0001
1000
0111
1000
0001
1000
0110
0001
0010
0100
1001
0010
0100
1000
,
1100
0000
0010
0000
1101
0010
0100
0001
0111
1000
0100
0010
1010
0100
1000
0001
,
1110
0100
1000
0100
0011
0100
0010
0001
1011
1000
0010
0100
1100
0001
0010
0100
,
1101
0001
0010
0100
1110
0101
1010
1100
0111
0000
1100
0110
1001
1010
1100
0110
,
1011
0000
0110
0000
0011
1001
1010
1100
1011
0100
0100
0100
1111
0000
1111
0000
,
1111
0000
1111
0000
1111
1000
0011
0100
1010
0001
0110
0100
1001
0010
0011
1000
,
0101
0010
0110
1000
1001
0010
1100
0001
0101
0010
1100
0010
1010
0100
0110
0001
,
1100
0010
0101
0001
2110
0001
0110
0001
0011
0001
0110
0010
0101
0010
0011
0100
,
0101
0010
0110
3001
1201
0010
1010
0001
0011
1000
1001
0010
0011
1000
1001
0001
,
1010
1010
1010
1310
1111
0001
0110
1000
1101
0010
1001
0100
0111
0001
0011
1000
,
0111
0010
1001
0100
1110
0001
0110
1000
1011
0100
0101
0010
1101
0100
1100
0001
,
1110
0100
0011
1000
1101
0110
0101
1010
0111
0001
1100
0110
1011
1100
0011
0101
,
1110
0010
0101
0011
1101
1010
0101
0110
0111
1000
0110
0001
1110
0100
1001
0100
,
1011
0000
0001
0000
1100
0000
0100
0000
2112
0000
0100
0000
0110
0000
0010
0000
0110
0000
0100
0000
0110
0000
0010
0000
0110
0000
0100
0000
3003
0111
0000
1101
;
